btbta

[2015] [欧美] [爱情] 查泰莱夫人的情人.Lady.Chatterleys.Lover.2015.1080p.BluRay.x264.DTS-FGT..56 GB

查泰莱夫人的情人电影海报


导演: 杰德·默丘里奥
编剧: 杰德·默丘里奥 / D·H·劳伦斯
主演: 荷丽黛·格兰杰 / 詹姆斯·诺顿 / 理查德·麦登 / 朱迪·科默 / 爱德华·霍尔克罗夫特 / 恩佐·科伦蒂
类型: 剧情 / 爱情
制片国家/地区: 英国
语言: 英语
上映日期: 2015-09-06(英国)
片长: 89分钟
IMDb链接: tt4116030

查泰莱夫人的情人的剧情简介  ·  ·  ·  ·  ·  ·
故事发生在第一次世界大战结束之后,战争给克里夫特查泰来爵士(詹姆斯·诺顿 James Norton 饰)带来了永久的创伤,亦给他同妻子康妮(荷丽黛·格兰杰 Holliday Grainger 是)之间的婚姻造成了无法弥补的缺憾。无奈之下,年轻的康妮只能终日生活在压抑之下。 
一次偶然中,康妮邂逅了名为帕尔金(理查德·麦登 Richard Madden 饰)的男子,后者是查泰来爵士雇佣的园丁。康妮无法自持的被体格壮硕充满了男子气概的帕尔金吸引着,两人天雷勾地火,很快走到了一起,在帕尔金强壮蛮横的肉体之中,康妮重新找回了身为女人的意义和快乐。然而,好景不长,就在康妮怀上了帕尔金的孩子之后,帕尔金的妻子现身揭露了他们两人的奸情。 

电影截图







Video
ID                                       : 1
Format                                   : AVC
Format/Info                              : Advanced Video Codec
Format profile                           : High@L4.1
Format settings, CABAC                   : Yes
Format settings, ReFrames                : 4 frames
Codec ID                                 : V_MPEG4/ISO/AVC
Duration                                 : 1h 29mn
Bit rate                                 : 9 766 Kbps
Width                                    : 1 920 pixels
Height                                   : 1 080 pixels
Display aspect ratio                     : 16:9
Frame rate mode                          : Constant
Frame rate                               : 25.000 fps
Color space                              : YUV
Chroma subsampling                       : 4:2:0
Bit depth                                : 8 bits
Scan type                                : Progressive
Bits/(Pixel*Frame)                       : 0.188
Stream size                              : 5.95 GiB (91%)
Writing library                          : x264 core 148 r2597 e86f3a1
Encoding settings                        : cabac=1 / ref=4 / deblock=1:0:0 / analyse=0x3:0x133 / me=umh / subme=7 / psy=1 / psy_rd=1.00:0.00 / mixed_ref=1 / me_range=16 / chroma_me=1 / trellis=1 / 8x8dct=1 / cqm=0 / deadzone=21,11 / fast_pskip=0 / chroma_qp_offset=-2 / threads=12 / lookahead_threads=2 / sliced_threads=0 / nr=0 / decimate=1 / interlaced=0 / bluray_compat=0 / constrained_intra=0 / bframes=3 / b_pyramid=2 / b_adapt=2 / b_bias=0 / direct=3 / weightb=1 / open_gop=0 / weightp=2 / keyint=250 / keyint_min=25 / scenecut=40 / intra_refresh=0 / rc_lookahead=50 / rc=2pass / mbtree=1 / bitrate=9766 / ratetol=1.0 / qcomp=0.60 / qpmin=0 / qpmax=69 / qpstep=4 / cplxblur=20.0 / qblur=0.5 / ip_ratio=1.40 / aq=1:1.00
Language                                 : English
Default                                  : Yes
Forced                                   : No

Audio
ID                                       : 2
Format                                   : DTS
Format/Info                              : Digital Theater Systems
Mode                                     : 16
Format settings, Endianness              : Big
Codec ID                                 : A_DTS
Duration                                 : 1h 29mn
Bit rate mode                            : Constant
Bit rate                                 : 768 Kbps
Channel(s)                               : 6 channels
Channel positions                        : Front: L C R, Side: L R, LFE
Sampling rate                            : 48.0 KHz
Frame rate                               : 93.750 fps (512 spf)
Bit depth                                : 24 bits
Compression mode                         : Lossy
Stream size                              : 489 MiB (7%)
Language                                 : English
Default                                  : Yes
Forced                                   : No

Text
ID                                       : 3
Format                                   : UTF-8
Codec ID                                 : S_TEXT/UTF8
Codec ID/Info                            : UTF-8 Plain Text
Language                                 : English
Default                                  : Yes
Forced                                   : No

Menu
00:00:00.000                             : en:00:00:00.000
00:10:57.480                             : en:00:10:57.480
00:21:37.360                             : en:00:21:37.360
00:32:50.280                             : en:00:32:50.280
00:43:08.280                             : en:00:43:08.280
00:56:01.240                             : en:00:56:01.240
01:07:34.400                             : en:01:07:34.400
01:17:20.920                             : en:01:17:20.920

1 个附件 售价 大小 下载 时间

查泰莱夫人的情人.Lady.Chatterleys.Lover.2015.1080p.BluRay.x264.DTS-FGT..56 GB.torrent 0 金币 66.17K 247 次 2月前

#1楼
发帖时间:2月前   |   查看数:0   |   回复数:2
cxzzdrs
感谢楼主发布资源,谢谢分享!
2月前 #2楼
xzdcn
谢谢楼主分享
2月前 #3楼
游客组