btbta

[80年代] [欧美] [剧情] 陆上行舟.Fitzcarraldo.1982.1080p.BluRay.x264-FAPCAVE.13.12 GB

陆上行舟电影海报


导演: 沃纳·赫尔佐格
编剧: 沃纳·赫尔佐格
主演: 克劳斯·金斯基 / 克劳迪娅·卡汀娜 / José Lewgoy / Miguel ángel Fuentes
类型: 剧情 / 传记 / 冒险
制片国家/地区: 秘鲁 / 原西德
语言: 意大利语 / 西班牙语 / 德语
上映日期: 1982-03-04
片长: 158 分钟
又名: 菲茨卡拉多
IMDb链接: tt0083946

陆上行舟的剧情简介  ·  ·  ·  ·  ·  ·
20世纪初南美秘鲁。痴迷歌剧的白人菲茨杰拉德(克劳斯·金斯基 Klaus Kinski饰)被当地人称为空想家“菲茨卡拉多”。菲茨卡拉多经常做出一些令人无法理解的举动,尤其当他在巴西的亚马逊大剧院欣赏到世界著名男高音卡鲁索的演出之后,居然萌生出要在秘鲁小镇上也修建出一座宏大剧院的疯狂念头。为了获得足够的资金,菲茨卡拉多接受了当地橡胶大亨向他提出到神秘恐怖的乌圭里亚林区进行收割的任务,一段惊险刺激的旅程随之开始。 
由德国著名导演沃纳·赫尔佐格执导的影片《陆上行舟》,荣获1982年第35届戛纳电影节主竞赛单元-最佳导演奖并入围该届金棕榈奖提名,以及入围1983年第40届金球奖最佳外语片提名。 

陆上行舟的获奖情况
第35届戛纳电影节 主竞赛单元 金棕榈奖(提名) 沃纳·赫尔佐格
第35届戛纳电影节 主竞赛单元 最佳导演 沃纳·赫尔佐格

电影截图







Video
ID                                       : 1
Format                                   : AVC
Format/Info                              : Advanced Video Codec
Format profile                           : High@L4.1
Format settings, CABAC                   : Yes
Format settings, ReFrames                : 4 frames
Codec ID                                 : V_MPEG4/ISO/AVC
Duration                                 : 2h 37mn
Bit rate                                 : 8 943 Kbps
Width                                    : 1 920 pixels
Height                                   : 1 040 pixels
Display aspect ratio                     : 1.85:1
Frame rate mode                          : Constant
Frame rate                               : 24.000 fps
Color space                              : YUV
Chroma subsampling                       : 4:2:0
Bit depth                                : 8 bits
Scan type                                : Progressive
Bits/(Pixel*Frame)                       : 0.187
Stream size                              : 9.81 GiB (75%)
Writing library                          : x264 core 142 r2453 ea0ca51
Encoding settings                        : cabac=1 / ref=4 / deblock=1:0:0 / analyse=0x3:0x133 / me=umh / subme=8 / psy=1 / psy_rd=1.00:0.00 / mixed_ref=1 / me_range=16 / chroma_me=1 / trellis=1 / 8x8dct=1 / cqm=0 / deadzone=21,11 / fast_pskip=0 / chroma_qp_offset=-2 / threads=12 / lookahead_threads=2 / sliced_threads=0 / nr=0 / decimate=1 / interlaced=0 / bluray_compat=0 / constrained_intra=0 / bframes=3 / b_pyramid=2 / b_adapt=2 / b_bias=0 / direct=3 / weightb=1 / open_gop=0 / weightp=2 / keyint=250 / keyint_min=24 / scenecut=40 / intra_refresh=0 / rc_lookahead=50 / rc=2pass / mbtree=1 / bitrate=8943 / ratetol=1.0 / qcomp=0.60 / qpmin=0 / qpmax=69 / qpstep=4 / cplxblur=20.0 / qblur=0.5 / ip_ratio=1.40 / aq=1:1.00
Language                                 : English
Default                                  : Yes
Forced                                   : No

Audio
ID                                       : 2
Format                                   : DTS
Format/Info                              : Digital Theater Systems
Mode                                     : 16
Format settings, Endianness              : Big
Codec ID                                 : A_DTS
Duration                                 : 2h 37mn
Bit rate mode                            : Constant
Bit rate                                 : 1 509 Kbps
Channel(s)                               : 6 channels
Channel positions                        : Front: L C R, Side: L R, LFE
Sampling rate                            : 48.0 KHz
Frame rate                               : 93.750 fps (512 spf)
Bit depth                                : 24 bits
Compression mode                         : Lossy
Stream size                              : 1.66 GiB (13%)
Language                                 : English
Default                                  : Yes
Forced                                   : No

Text
ID                                       : 4
Format                                   : UTF-8
Codec ID                                 : S_TEXT/UTF8
Codec ID/Info                            : UTF-8 Plain Text
Duration                                 : 2h 30mn
Bit rate                                 : 27 bps
Count of elements                        : 866
Stream size                              : 30.7 KiB (0%)
Language                                 : English
Default                                  : Yes
Forced                                   : No

Menu
00:00:00.000                             : en:00:00:00.000
00:10:11.875                             : en:00:10:11.875
00:24:55.583                             : en:00:24:55.583
00:43:40.333                             : en:00:43:40.333
00:52:20.875                             : en:00:52:20.875
01:08:44.375                             : en:01:08:44.375
01:17:30.167                             : en:01:17:30.167
01:30:31.125                             : en:01:30:31.125
01:47:25.875                             : en:01:47:25.875
02:00:36.417                             : en:02:00:36.417
02:13:25.167                             : en:02:13:25.167
02:26:55.583                             : en:02:26:55.583



1 个附件 售价 大小 下载 时间

陆上行舟.Fitzcarraldo.1982.1080p.BluRay.x264-FAPCAVE.13.12 GB.torrent 0 金币 66.20K 33 次 3月前

#1楼
发帖时间:3月前   |   查看数:0   |   回复数:0
游客组