btbta

[2000-2010] [欧美] [喜剧] 非常男女.Not.Another.Teen.Movie.2001.1080p.BluRay.x264.DTS-FGT.7.79 GB

非常男女电影海报


导演: Joel Gallen
编剧: Adam Jay Epstein / Andrew Jacobson / Buddy Johnson
主演: 凯乐·利 / 克里斯·埃文斯 / 杰米·普莱斯利 / 艾瑞克·克里斯蒂安·奥森 / 米娅·科施娜 / 乔安娜·加西亚
类型: 喜剧
官方网站: www.spe.sony.com/movies/notanotherteen/
制片国家/地区: 美国
语言: 英语
上映日期: 2001-12-14
片长: 89 分钟
又名: 搞乜鬼青春杂作(港) / 少儿不宜 / 非一般青春大集会
IMDb链接: tt0277371

非常男女的剧情简介  ·  ·  ·  ·  ·  ·
约翰•休斯学院有一群怪异的学生,夺走无数少女心的四分卫杰克(克里斯•埃文斯 Chris Evans 饰)因为不服从满口痰的教练安排被打入冷宫丧失了抛球技能,但这并未降低他的受欢迎程度,杰克前女友普瑞斯移情别恋爱上了DV小子,损友兼竞争对手奥斯汀则时时向杰克发起挑战。不堪风情迷恋男影星的眼镜少女珍妮(凯乐•利 Chyler Leigh 饰)在学校是丑小鸭的角色,弟弟米奇跟一票朋友每日只想如何破处,苦恋珍妮的瑞奇用尽了一切办法但仍然不能打动木讷的姑娘。杰克和珍妮,两个看似毫无交集的人因为一个赌走到了一起,杰克和奥斯汀打赌将把珍妮变成最耀眼的舞会女孩,为此他不惜损失色相拜托姐姐凯瑟琳帮忙,然而随着接触日深,杰克真的被珍妮吸引了……

电影截图







Video
ID                                       : 1
Format                                   : AVC
Format/Info                              : Advanced Video Codec
Format profile                           : High@L4.1
Format settings, CABAC                   : Yes
Format settings, ReFrames                : 4 frames
Codec ID                                 : V_MPEG4/ISO/AVC
Duration                                 : 1h 29mn
Bit rate                                 : 10.8 Mbps
Nominal bit rate                         : 11.5 Mbps
Width                                    : 1 920 pixels
Height                                   : 1 036 pixels
Display aspect ratio                     : 1.85:1
Frame rate mode                          : Constant
Frame rate                               : 23.976 (24000/1001) fps
Color space                              : YUV
Chroma subsampling                       : 4:2:0
Bit depth                                : 8 bits
Scan type                                : Progressive
Bits/(Pixel*Frame)                       : 0.226
Stream size                              : 6.70 GiB (86%)
Title                                    : Not.Another.Teen.Movie.2001.1080p.BluRay.x264.DTS-FGT
Writing library                          : x264 core 148 r2694 3b70645
Encoding settings                        : cabac=1 / ref=4 / deblock=1:-2:-2 / analyse=0x3:0x113 / me=umh / subme=7 / psy=1 / psy_rd=1.00:0.15 / mixed_ref=1 / me_range=16 / chroma_me=1 / trellis=1 / 8x8dct=1 / cqm=0 / deadzone=21,11 / fast_pskip=1 / chroma_qp_offset=-3 / threads=40 / lookahead_threads=3 / sliced_threads=0 / nr=0 / decimate=1 / interlaced=0 / bluray_compat=0 / constrained_intra=0 / bframes=3 / b_pyramid=2 / b_adapt=2 / b_bias=0 / direct=3 / weightb=1 / open_gop=0 / weightp=2 / keyint=250 / keyint_min=25 / scenecut=40 / intra_refresh=0 / rc_lookahead=50 / rc=abr / mbtree=1 / bitrate=11500 / ratetol=1.0 / qcomp=0.60 / qpmin=0 / qpmax=69 / qpstep=4 / vbv_maxrate=31250 / vbv_bufsize=31250 / nal_hrd=none / filler=0 / ip_ratio=1.40 / aq=1:1.00
Language                                 : English
Default                                  : Yes
Forced                                   : No

Audio
ID                                       : 2
Format                                   : DTS
Format/Info                              : Digital Theater Systems
Mode                                     : 16
Format settings, Endianness              : Big
Codec ID                                 : A_DTS
Duration                                 : 1h 29mn
Bit rate mode                            : Constant
Bit rate                                 : 1 509 Kbps
Channel(s)                               : 6 channels
Channel positions                        : Front: L C R, Side: L R, LFE
Sampling rate                            : 48.0 KHz
Frame rate                               : 93.750 fps (512 spf)
Bit depth                                : 24 bits
Compression mode                         : Lossy
Stream size                              : 961 MiB (12%)
Title                                    : Not.Another.Teen.Movie.2001.1080p.BluRay.x264.DTS-FGT
Default                                  : Yes
Forced                                   : No

Text
ID                                       : 3
Format                                   : UTF-8
Codec ID                                 : S_TEXT/UTF8
Codec ID/Info                            : UTF-8 Plain Text
Language                                 : English
Default                                  : Yes
Forced                                   : No

Menu
00:00:00.000                             : en:Chapter 01
00:10:03.936                             : en:Chapter 02
00:20:03.493                             : en:Chapter 03
00:30:04.093                             : en:Chapter 04
00:40:04.110                             : en:Chapter 05
00:50:05.335                             : en:Chapter 06
01:00:05.518                             : en:Chapter 07
01:10:07.578                             : en:Chapter 08
01:20:07.761                             : en:Chapter 09


1 个附件 售价 大小 下载 时间

非常男女.Not.Another.Teen.Movie.2001.1080p.BluRay.x264.DTS-FGT.7.79 GB.torrent 0 金币 78.56K 46 次 2月前

#1楼
发帖时间:2月前   |   查看数:0   |   回复数:0
游客组