btbta

[90年代] [欧美] [动画] 埃及王子.The.Prince.of.Egypt.1998.1080p.WEBRip.DD5.1.x264-TrollHD.5.99 GB

埃及王子电影海报


导演: 布兰达∙查普曼 / 西蒙·威尔斯 / Steve Hickner
编剧: Philip LaZebnik / 尼古拉斯·梅耶
主演: 方·基默 / Ralph Fiennes / 米歇尔·菲佛 / 桑德拉·布洛克 / 杰夫·高布伦 / 丹尼·格洛弗 / 帕特里克·斯图尔特 / 海伦·米伦 / 史蒂夫·马丁 / 马丁·肖特 / Bobby Motown / 埃登·里格尔 / Ofra Haza / 詹姆斯·埃弗里 / Aria Noelle Curzon
类型: 剧情 / 动画 / 歌舞 / 家庭 / 历史 / 冒险
制片国家/地区: 美国
语言: 英语 / 希伯来语
上映日期: 1998-12-18(美国)
片长: 99分钟
IMDb链接: tt0120794

埃及王子的剧情简介  ·  ·  ·  ·  ·  ·
  法老发现自己的王国内希伯来人日益增多,开始感到不安,对希伯来人总是无端猜疑,于是命令所有的希伯来人都去当奴隶,并吩咐讲所有希伯来人生的男孩扔到河里。这天,一个希伯来妇女生了一个漂亮的男孩,为了自己的孩子能够幸免于难,她将他放到一个草箱中放进了尼罗河。 
  皇后在河边捡到了这个漂亮的男孩,将他带回宫殿抚养,取名摩西。摩西和王子兰姆蒂斯一起长大,两人成了最好的朋友。摩西十分反对法老对希伯来人的暴政,一次他为了阻止一名埃及人残害希伯来人而将失手将他打死。为了逃避法老的惩罚,摩西逃到了米甸地。不久法老去世,兰姆蒂斯成了新法老。摩西原本以为兰姆蒂斯会一改以往法老对希伯来人的暴政,没想到兰姆蒂斯反而变本加厉。在神的指示下,摩西知道了自己的身世,于是他决定要带领希伯来人走出困境。 

埃及王子的获奖情况
第71届奥斯卡金像奖 音乐/喜剧片最佳原创配乐(提名) 汉斯·季默 / 斯蒂芬·施瓦茨
第71届奥斯卡金像奖 最佳原创歌曲 斯蒂芬·施瓦茨
第27届动画安妮奖 最佳动画长片(提名) 

电影截图







Video
ID                                       : 2
Format                                   : AVC
Format/Info                              : Advanced Video Codec
Format profile                           : High@L4
Format settings, CABAC                   : Yes
Format settings, ReFrames                : 4 frames
Codec ID                                 : V_MPEG4/ISO/AVC
Duration                                 : 1h 38mn
Bit rate mode                            : Variable
Bit rate                                 : 8 042 Kbps
Maximum bit rate                         : 15.0 Mbps
Width                                    : 1 920 pixels
Height                                   : 1 080 pixels
Display aspect ratio                     : 16:9
Frame rate mode                          : Constant
Frame rate                               : 23.976 (24000/1001) fps
Color space                              : YUV
Chroma subsampling                       : 4:2:0
Bit depth                                : 8 bits
Scan type                                : Progressive
Bits/(Pixel*Frame)                       : 0.162
Stream size                              : 5.54 GiB (93%)
Writing library                          : x264 core 148 r2623 d5b2374
Encoding settings                        : cabac=1 / ref=4 / deblock=1:-1:-1 / analyse=0x3:0x133 / me=umh / subme=9 / psy=1 / psy_rd=1.00:0.15 / mixed_ref=1 / me_range=24 / chroma_me=1 / trellis=2 / 8x8dct=1 / cqm=0 / deadzone=21,11 / fast_pskip=1 / chroma_qp_offset=-3 / threads=34 / lookahead_threads=5 / sliced_threads=0 / nr=150 / decimate=1 / interlaced=0 / bluray_compat=0 / constrained_intra=0 / bframes=8 / b_pyramid=2 / b_adapt=2 / b_bias=0 / direct=3 / weightb=1 / open_gop=0 / weightp=2 / keyint=120 / keyint_min=61 / scenecut=0 / intra_refresh=0 / rc_lookahead=120 / rc=crf / mbtree=1 / crf=18.0 / qcomp=0.60 / qpmin=0 / qpmax=69 / qpstep=4 / vbv_maxrate=15000 / vbv_bufsize=31250 / crf_max=0.0 / nal_hrd=vbr / filler=0 / ip_ratio=1.40 / aq=3:1.00
Default                                  : Yes
Forced                                   : No
Color range                              : Limited
Color primaries                          : BT.709
Transfer characteristics                 : BT.709
Matrix coefficients                      : BT.709

Audio
ID                                       : 1
Format                                   : E-AC-3
Format/Info                              : Audio Coding 3
Format settings, Endianness              : Big
Codec ID                                 : A_EAC3
Duration                                 : 1h 38mn
Bit rate mode                            : Constant
Bit rate                                 : 640 Kbps
Channel(s)                               : 6 channels
Channel positions                        : Front: L C R, Side: L R, LFE
Sampling rate                            : 48.0 KHz
Frame rate                               : 187.500 fps (256 spf)
Compression mode                         : Lossy
Stream size                              : 452 MiB (7%)
Language                                 : English
Default                                  : Yes
Forced                                   : No

Text
ID                                       : 3
Format                                   : UTF-8
Codec ID                                 : S_TEXT/UTF8
Codec ID/Info                            : UTF-8 Plain Text
Duration                                 : 1h 37mn
Bit rate                                 : 48 bps
Count of elements                        : 1163
Stream size                              : 34.4 KiB (0%)
Default                                  : Yes
Forced                                   : No


1 个附件 售价 大小 下载 时间

埃及王子.The.Prince.of.Egypt.1998.1080p.WEBRip.DD5.1.x264-TrollHD.5.99 GB.torrent 0 金币 60.50K 65 次 4月前

#1楼
发帖时间:4月前   |   查看数:0   |   回复数:0
游客组